#TITLE:Donkey Kong Country 2;
#SUBTITLE:- Web Woods;
#ARTIST:Unknown artist;
#TITLETRANSLIT:;
#SUBTITLETRANSLIT:;
#ARTISTTRANSLIT:;
#CREDIT:;
#BANNER:;
#BACKGROUND:;
#LYRICSPATH:;
#CDTITLE:;
#MUSIC:Donkey Kong Country 2 - Web Woods.mp3;
#OFFSET:0.000;
#SAMPLESTART:100.000;
#SAMPLELENGTH:12.000;
#SELECTABLE:YES;
#BPMS:0.000=202.401;
#STOPS:;
#BGCHANGES:;
// cache tags:
#FIRSTBEAT:1.000;
#LASTBEAT:611.000;
#SONGFILENAME:Songs/nhac/Donkey Kong Country 2 - Web Woods/Donkey Kong Country 2 - Web Woods.sm;
#HASMUSIC:1;
#HASBANNER:0;
#MUSICLENGTH:180.747;
// end cache tags

//---------------dance-single - ----------------
#NOTES:
     dance-single:
     :
     Easy:
     1:
     0.367,0.421,0.050,0.166,0.645,425.000,9.000,30.000,0.000,0.000:
0000
0000
0000
2000
0000
0000
0000
0000
,
0000
0000
0000
0000
,
0000
0000
3000
0200
0000
0000
0000
0000
,
0000
0000
0000
0000
,
0000
0000
0000
0000
0000
0000
0300
0020
0000
0000
0000
0000
0000
0000
0000
0000
,
0000
0000
0000
0000
,
0000
0000
0000
0000
0000
0000
0000
0030
0000
0002
0000
0000
0000
0000
0000
0000
,
0000
0000
0000
0000
,
0000
0000
0000
0000
0000
0000
0000
0003
0000
0000
2000
0000
0000
0000
0000
0000
,
0000
0000
0000
0000
,
0000
0000
0000
0000
0000
0000
0000
0000
0000
0000
3000
0200
0000
0000
0000
0000
,
0000
0000
0000
0000
,
0000
0000
0000
0000
0000
0000
0000
0000
0000
0000
0000
0000
0300
0020
0000
0000
,
0000
0000
0000
0000
,
0000
0000
0000
0000
0000
0000
0000
0000
0000
0000
0000
0000
0000
0030
0000
0002
,
0000
0000
0000
0000
,
0000
0000
0000
0000
0000
0000
0003
0000
1000
0000
0100
0000
0010
0100
0000
0000
,
0002
0000
0000
0000
0000
0000
0000
0000
0003
0010
0000
0000
0200
0000
0000
0000
,
0000
0000
0000
0000
0000
0000
0000
0000
0000
0000
0000
0300
0010
0000
0001
0000
,
0010
0000
0020
0000
0000
0000
0000
0000
0000
0130
0000
0000
0000
0020
0000
0000
,
0000
0000
0000
0000
0000
0000
0031
0000
0000
0000
0010
0000
0000
0200
0000
0000
,
0000
0000
0000
0000
0000
0000
0000
0000
0000
0000
0000
0000
0000
0000
0300
0010
,
0000
0000
1000
0000
0002
0000
0000
0000
0000
0000
0003
0010
0000
0000
0000
0100
,
0000
0100
1000
0010
,
0100
0000
0000
0000
0001
0000
0000
0000
0010
0000
0000
0000
0000
0000
1000
0100
,
0000
0010
0000
0100
0000
0002
0000
0000
0000
0000
0000
0000
0000
0003
0010
0000
,
0000
0200
0000
0000
0000
0000
0000
0000
0000
0000
0000
0000
0000
0000
0000
0000
,
0300
0000
0000
1000
0100
0000
0000
0010
0000
0000
0000
0000
0000
0000
0000
0001
,
0000
0000
0000
0020
0000
0000
0000
0000
0000
0000
0000
0000
0000
0000
0000
0000
,
0000
0000
0000
0030
0001
0000
0010
0000
0200
0000
0000
0000
0000
0000
0000
0000
,
0000
0000
0000
0300
0000
1000
0000
0000
0000
0020
0000
0000
0000
0000
0000
0000
,
0000
0000
0000
0000
0000
0000
0000
0130
0000
0000
0020
0000
0000
0000
0000
0000
,
0000
0000
0000
0000
,
0000
0000
0000
0000
0000
0000
0000
0000
0000
0030
0000
0000
1000
0000
0000
0100
,
0000
0000
0000
0001
0000
0000
0000
0000
0000
0000
0010
0000
0000
0000
0000
0000
,
0000
1000
0000
0000
0100
0000
0000
0000
0000
0000
0000
0000
0000
1000
0000
0000
,
0000
0100
0000
0000
0000
0010
0000
0000
0000
0000
0000
0001
0000
0000
0000
0000
,
0000
0100
0000
0000
0000
0000
1010
0000
0000
0000
0000
0000
0000
0000
0100
0000
,
0000
0000
0010
0000
0000
0000
0100
0001
0000
0000
0000
0000
0010
0000
0000
0000
,
0000
0000
0100
0000
0000
0000
0000
1010
0000
0000
0000
0000
0000
0000
0000
0010
,
0000
0000
1000
0000
0101
0000
0000
0010
,
0000
0000
0000
0100
0000
0010
0000
0000
0000
1001
0000
0000
0000
0000
0000
0000
,
0000
0010
0000
0000
0000
0100
0000
0000
0000
1000
0001
0000
0000
0000
0000
0000
,
0010
0000
0000
0100
0000
1001
0000
0000
,
0000
0000
0000
0100
0000
0000
0000
0010
0000
0000
0000
1001
0000
0000
0000
0000
,
0000
0000
0000
0002
0000
0000
0000
0000
0000
0000
0000
0000
0000
0000
0000
0003
,
0010
0001
0000
0000
0000
0000
0010
0000
,
0100
0010
0000
0000
0000
0000
0000
2000
,
0000
0000
0000
0000
0000
0100
0000
0010
,
0000
0000
0000
0000
0001
0000
0000
0000
0000
0000
0010
0000
0000
0000
0000
0100
,
3000
0000
0000
0000
0000
0000
0000
1000
0000
0000
0000
0100
0000
0000
0000
0010
,
0000
0000
0000
0001
0000
0010
0000
0000
0000
0000
0000
0000
1000
0000
0000
0000
,
0100
0000
0000
0000
0000
0010
0000
0001
0000
0000
0000
0000
0000
0000
0000
0000
,
0000
0000
0000
0000
0000
0000
0000
0000
0000
0020
0000
0000
0000
0000
0000
0000
,
0000
0000
0000
0000
0030
0001
0000
0100
0000
0000
0000
0000
0000
0000
0000
0000
,
0000
0000
0010
0000
0000
0000
0000
0200
0000
0000
0000
0000
0000
0000
0000
0000
,
0000
0300
0000
1000
0000
0000
0000
0020
0000
0000
0000
0000
0000
0000
0000
0000
,
0000
0000
0032
0000
,
0000
0000
0000
0003
0000
0010
0000
0100
0000
1000
0000
0100
0000
0020
0000
0000
,
0000
0000
0000
0000
0030
0001
0000
0000
0000
0010
0000
0000
0000
0000
0000
0000
,
0000
0000
0000
0000
0000
0000
0000
1000
0000
0100
0000
0010
0000
0001
0000
0020
,
0000
0000
0000
0000
0000
0000
0000
0130
0000
0000
0000
1000
0000
0000
0000
0000
,
0000
0000
0000
0100
0000
0000
0000
0010
0000
0000
0000
0000
0001
0000
0000
0000
,
0000
0000
0000
0000
0000
0000
0000
0000
0000
0000
0000
0000
0001
0000
0010
0100
,
1000
0000
0000
0000
0000
0000
0000
0000
0000
0100
0000
0010
0000
0000
0000
0000
,
0000
0000
0001
0000
0000
0010
0000
0000
0000
0100
0000
0000
0000
1000
0000
0000
,
0010
0000
0000
0000
0000
0100
0000
0010
,
0000
0000
0002
0000
0000
0000
0000
0000
0000
0000
0003
0010
0000
0000
0000
0100
,
0000
0000
0000
0000
0000
0000
0000
0000
0000
0000
0000
0000
1000
0000
0000
0100
,
0010
0000
0001
0000
0020
0000
0000
0000
0000
0000
0000
0000
0030
0100
0000
0000
,
0000
1000
0000
0000
0000
0000
0000
0000
0001
0000
0000
0000
0000
0000
0000
0000
,
0000
0000
0010
0000
0000
0000
0100
0000
0000
0000
0000
0000
0000
0000
0000
1000
,
0000
0000
0100
0000
0010
0000
0000
0001
0000
0000
0000
0000
0000
0000
0000
0010
,
0000
0000
0000
0100
0000
0000
0000
1000
0000
0000
0000
0000
0000
0000
0000
0000
,
0000
0000
0000
0000
0010
0000
0000
0100
0000
0000
0000
0000
0001
0000
0000
0000
,
0010
0000
0000
0000
0100
0000
0000
0000
0000
1000
0000
0000
0000
0100
0000
0000
,
0000
0010
0000
0000
0000
0001
0000
0000
0000
0010
0000
0000
0000
0100
0000
0000
,
0000
0010
0000
0000
0000
0000
0000
0000
0000
0000
1000
0000
0000
0000
0100
0000
,
0000
0000
0010
0000
0000
0000
0000
0000
0000
0000
0000
0001
0000
0000
0000
0010
,
0000
0000
0000
0100
0000
0000
0000
1000
0000
0000
0000
0010
0000
0000
0000
0100
,
0000
0000
0001
0000
0000
0010
0000
0000
,
0000
0100
0000
0000
0000
1000
0000
0000
0000
0000
0000
0010
0000
0100
0000
0010
,
0000
0100
0000
0000
0000
0001
0000
0000
0000
0000
0000
0000
0000
0100
0000
0000
,
0000
0000
0010
0000
0000
0000
0001
0000
0000
0000
0000
0000
0000
0000
0000
1000
,
0000
0000
0000
0100
0000
0000
0000
0010
0000
0000
0000
0001
0000
0000
0000
0010
,
0000
0000
0000
0100
0000
0000
0000
1000
0000
0000
0000
0100
0000
0000
0000
0000
,
0010
0100
0001
0000
,
0100
0000
0000
0000
1000
0000
0000
0000
0000
0010
0000
0000
0000
0000
0000
0000
,
0000
1000
0010
0000
0000
0100
0000
0000
0000
0010
0000
0000
0000
0000
0001
0000
,
0000
0101
0000
0100
0000
0010
0000
1000
,
0000
0000
0000
1010
0000
0000
0000
0100
0000
0000
0000
0010
0000
0000
0000
0000
,
0000
0000
0000
0001
0000
0000
0000
0100
0000
0000
0000
0000
0010
0000
0000
0000
,
1000
0000
0000
0000
0010
0000
0000
0000
0100
0000
0000
0000
0000
0010
0000
0000
,
0000
0001
0000
0000
0000
0010
0000
0000
0000
0100
0000
0000
0000
1000
0000
0000
,
0000
0100
0000
0010
0000
0001
0000
0000
0000
0000
0000
0000
0000
0000
0010
0000
,
0000
0100
0000
0000
0000
0000
0000
0000
,
0000
0000
0000
0000
1000
0100
0000
0000
0010
0000
0000
0000
0000
0000
0000
0000
,
0010
0100
0000
0000
,
0000
0000
0000
0000
1000
0001
0000
0010
0000
0100
0000
0000
0000
0000
0000
0000
,
0000
0010
0000
0000
0000
1010
0000
0000
0000
0000
0000
0000
0000
0000
0100
0000
,
0000
0000
0010
0000
0000
0000
0100
0001
0000
0000
0000
0000
0000
0000
0000
0000
,
0000
0000
0000
0000
,
0000
0000
0000
0100
0000
0000
0010
0000
0100
0010
0000
0000
0001
0000
0000
0000
,
0000
0010
1000
0000
,
0000
0000
0000
0000
0000
0000
0000
0000
0000
1000
0000
0100
0000
0010
0000
0000
,
0000
0000
0000
0000
0000
0100
0000
0000
0000
0000
1000
0000
0000
0000
1000
0000
,
0000
0000
0100
0000
0000
0000
0010
0000
0000
0000
0000
0001
0000
0000
0000
0001
,
0000
0000
0000
0000
0000
0000
0000
0010
0000
0000
0000
0100
0000
0000
0000
0000
,
0001
0001
0100
0010
,
1000
0000
0000
0000
0100
0000
0000
0000
0000
0010
0000
0000
0100
0000
0000
0000
,
0000
0001
0000
0000
0000
0001
0000
0000
0000
0100
0000
0000
0000
0010
0000
0000
,
0000
1000
0000
0000
0000
0100
0000
0000
0000
0000
0010
0000
0000
0000
0100
0000
,
0000
0000
1000
0000
0000
0000
1000
0000
0000
0000
0100
0000
0000
0000
0000
0010
,
0000
0000
0000
0100
0000
0000
0000
0000
0001
0000
0000
0000
0010
0000
0000
0100
,
0000
0010
0010
0100
,
0001
0000
0000
0000
0000
0010
0000
0000
0000
0100
0000
0000
0000
1000
0000
0000
,
0000
0010
0000
0000
0000
0100
0000
0000
0000
0000
0100
0000
0000
0000
0001
0000
,
0000
0100
0000
1000
0000
0100
0000
0010
,
0000
0100
0000
0001
0000
0001
0000
0010
,
0000
0000
0000
0100
0000
0000
0000
1000
0000
0000
0000
0100
0000
0000
0000
0000
,
0010
0000
0000
0100
0000
0000
0000
0000
0001
0000
0000
0000
0001
0000
0000
0000
,
0010
0000
0000
0000
0100
0000
0000
0000
0000
1000
0000
0000
0100
0000
0000
0000
,
0000
0010
0000
0000
0100
0000
0000
0000
0000
1000
0000
0000
0000
1000
0000
0000
,
0000
0100
0000
0000
0000
0000
0010
0000
0000
0000
1000
0000
0000
0000
0000
0001
,
0000
0000
0000
0010
0000
0000
0100
0000
0000
0000
0000
0010
0000
0000
0000
0010
,
0000
0000
0000
0100
0000
0000
0000
0000
0001
0000
0000
0000
1000
0000
0000
0000
,
0100
0000
0000
0000
0010
0000
0000
0000
0100
0000
0000
0000
0000
0100
0000
0000
,
0000
0100
0000
0000
0000
0010
0000
0000
0000
0001
0000
0000
0000
0001
0000
0000
,
0000
0000
0000
0000
0000
0010
0000
0000
0000
0100
0000
0000
0000
0000
0000
0000
,
0000
0000
0000
0000
0000
0000
0000
0000
0000
1000
0100
0010
0000
0001
0000
0000
,
0000
0000
0000
0010
0000
0100
0000
0000
,
0000
0000
0000
1000
0000
0000
0000
0001
0000
0000
0000
0100
0000
0000
0000
0000
,
0000
0000
0000
0000
0000
0000
0000
0000
0000
0000
0000
0000
0000
0001
0010
0100
,
0000
1000
0000
0000
0000
0000
0000
0000
0000
0000
0000
0000
0000
0000
0000
0000
,
0000
0001
0000
0000
0000
0000
0000
0000
0000
0010
0000
0000
0000
0000
0000
0000
,
0000
0000
0100
0000
0000
0000
0000
0000
0000
0000
0000
1000
0000
0100
0000
0010
,
0000
0100
0000
0001
0000
0000
0000
0000
0000
0000
0000
0010
0000
0000
0000
0100
,
0000
0000
0000
0000
,
1000
0100
0010
0000
0000
0000
0100
0000
,
0000
0001
0000
0000
0000
0000
0000
0000
0010
0000
0000
0000
0000
0001
0000
0000
,
0000
0100
0000
0010
0000
0000
0100
0000
0000
0000
0000
0000
0000
0000
0000
0000
,
0000
0000
0000
0000
1000
0000
0100
1000
0000
0000
0000
0000
0000
0000
0000
0000
,
0000
0000
0000
0010
0000
0000
0000
0100
0000
0000
0000
0000
0000
0000
0000
0000
,
1000
0000
0000
0001
0000
0000
0100
0000
,
0010
0000
0000
0000
0000
0000
0000
0000
1000
0000
0000
0000
0000
0100
0000
0000
,
0000
0001
0000
0000
0000
0000
0000
0010
0000
0000
0000
0000
0000
0100
0000
0000
,
0000
0001
0000
0000
0000
1000
0000
0000
0001
0000
1000
0000
0000
0000
0100
0000
,
0000
0000
0010
0000
0000
0000
0000
0000
0000
0001
0000
0000
0000
0000
0100
0000
,
0000
0000
0000
0010
0000
0000
0000
0000
0000
0000
0000
1000
0000
0000
0000
0000
,
0100
0000
0000
0010
0000
0000
0000
0000
0000
0000
0001
0000
0000
0000
0000
0000
,
0100
0000
0000
0000
0010
0000
0000
0000
0000
0000
0000
0000
0000
1000
0000
0000
,
0000
0100
0000
0000
0000
0010
0000
0000
0000
0000
0000
0001
0000
0000
0000
0000
,
0000
0100
0000
0000
0000
0010
0000
0000
0000
0000
0000
0000
0000
0000
0000
0000
;

//---------------dance-single - ----------------
#NOTES:
     dance-single:
     :
     Medium:
     1:
     0.705,0.718,0.288,0.127,1.000,817.000,52.000,23.000,0.000,0.000:
0000
0000
0000
0000
0000
0000
2000
0000
0000
0100
0000
0000
0010
0000
0000
0000
,
0001
0000
0000
0000
0000
0010
0000
0000
0000
0010
0000
0000
0100
0000
0000
0000
,
0000
0010
0000
3000
0000
0100
0000
0000
0000
2000
0000
0000
0000
0000
0100
0000
,
0000
0000
0010
0000
0000
0000
0001
0000
0000
0000
0001
0000
0000
0000
0000
0010
,
0000
0000
0000
3002
0000
0000
0000
0100
0000
0000
0000
2000
0000
0000
0000
0003
,
0010
0100
0001
0001
,
0100
0000
0000
0000
3020
0000
0000
0000
2000
0030
0000
0000
0100
0000
0000
0000
,
0010
0000
0000
0000
0200
0000
3000
0000
1000
0000
0000
0000
0000
1000
0000
0300
,
0000
0100
0000
0000
0010
0000
0000
0000
0000
0002
0000
0000
0000
0100
0000
0000
,
0000
0010
0000
0000
0000
0000
0100
0000
0000
0000
1000
0000
0000
0000
0200
0000
,
0003
0000
0010
0000
0000
0000
0002
0000
0300
0000
2000
0003
0000
0000
0000
0010
,
0000
0000
0000
0100
0000
0000
0000
0010
0000
0000
0000
0001
0000
0000
0000
0001
,
0000
0000
0000
0000
0100
0000
0000
0000
0020
3000
0000
0000
0100
0000
0000
0000
,
0000
1000
0000
0000
0000
0001
0000
0000
0000
0100
0030
0000
0000
1000
0001
0000
,
0000
1000
0001
0000
0000
0000
0010
0000
0000
0000
0100
0000
0000
0000
1000
0000
,
0000
0000
0100
0000
0000
0000
0010
0000
0000
0000
0100
0000
0000
0000
0000
1001
,
0000
0000
0000
1001
0000
0000
0000
0010
0000
1000
0000
0100
0000
0010
0000
2000
,
0001
0100
0010
3100
,
1001
1001
0010
0100
,
0002
0000
0000
0000
0000
2000
0000
0003
0000
0100
0000
0000
0000
0010
3000
0000
,
0000
1000
0001
0000
0000
1000
0001
0000
0000
0000
0100
0000
0000
0000
0010
0000
,
0000
0000
2000
0000
0000
0000
0100
0000
0000
0000
0000
0010
0000
0000
3000
0001
,
0010
0100
0000
2000
0000
0000
0000
0100
0000
0000
0000
0000
0010
0000
0000
0100
,
0010
0000
0001
0000
0000
3010
0100
0000
0100
0000
0010
0000
0100
0000
0010
0000
,
0100
0000
0001
0000
0010
0000
0100
0000
0000
1000
0000
0100
0000
0010
0000
0100
,
0000
0010
0000
0100
0000
2000
0001
0000
0000
0000
0010
0000
0000
3100
0000
0000
,
0000
1000
0010
1000
0000
0100
0000
1001
,
0000
0000
0100
0000
0010
0000
1000
0000
0000
0000
0100
0000
0000
0000
0000
0010
,
0000
0000
0000
1000
0000
0010
0000
1000
0000
0000
0000
0100
0000
0000
0000
0001
,
0000
0000
0000
0000
0001
0000
0010
0100
1000
0000
0000
0000
0100
0000
0000
0000
,
0010
0000
0000
0000
0000
0000
0100
0000
0110
0000
0001
0000
0000
1000
0000
0000
,
0000
0010
0000
0100
0000
0001
0000
0010
0000
0100
0000
0000
0000
0000
1000
0000
,
0000
0000
0100
0000
0000
0000
0000
0010
0000
0001
0000
0010
0000
0000
0000
0100
,
0000
0000
0000
1000
0000
0000
0100
0000
0000
0010
0000
1000
0000
0000
0000
0002
,
0000
0000
0000
0100
0000
0003
0000
0100
0000
0010
0000
0000
1001
0000
0000
0000
,
0100
0000
0000
0010
0000
1000
0000
0000
0100
0000
0000
0000
0000
1000
0000
0000
,
0000
0100
0000
0000
0000
1010
0000
0000
0000
0100
0000
0010
0000
1000
0001
0000
,
0000
0010
0000
0000
0000
0100
0000
0000
0000
0000
1000
0010
0000
0000
1000
0000
,
0000
0000
0100
0000
0010
0000
0100
0000
0000
0000
0010
0000
0100
0000
1000
0001
,
0000
0000
0010
0000
0000
0100
0000
0010
0000
0000
0000
0100
0000
0010
0000
1000
,
0000
0000
0000
0100
0000
0000
0000
0010
0000
0000
0000
0100
0000
0010
0000
0000
,
1010
0000
0000
0000
0100
0000
0001
0000
0100
0000
0000
0000
0000
0010
0000
0100
,
0000
0010
0000
0000
0000
0001
0000
0000
0000
1000
0000
0000
0000
0100
0000
0010
,
0000
1001
0000
0100
0000
0010
0000
0100
,
1000
0000
0000
0100
0000
0000
0000
0010
0000
0000
0100
0000
0000
0000
0000
0010
,
0001
0000
0000
2000
0001
0000
0000
0100
0000
0000
0000
0010
0000
0000
0000
0000
,
0001
0000
0010
0000
0000
0000
0000
0100
3000
0000
0000
0001
0000
0000
0000
0000
,
0010
0000
0100
0000
1000
0001
0000
0000
0100
0000
0000
0000
0000
0100
0000
0000
,
0000
0010
0000
0100
0000
0010
0000
0000
0000
0100
0000
0000
0000
0010
0000
0000
,
0000
0100
0000
0010
0000
0000
1000
0010
0000
0000
0100
0000
0000
0000
0001
0000
,
0000
0010
0000
0100
0000
0000
0000
1000
0000
0000
0000
0100
0000
0000
0000
0010
,
0000
0000
0000
0001
0000
0010
0000
0000
1001
0000
0000
0000
0100
0000
0000
0000
,
0010
0000
0000
0000
0000
0010
0001
0000
0010
0000
0000
0000
0000
1000
0000
0000
,
0000
0100
0000
0000
0010
0000
0000
0100
0000
1001
0000
0000
0000
0010
0000
0000
,
0000
0100
0000
0000
0000
0000
0001
0000
0100
0000
0000
0000
0010
0000
1000
0000
,
0000
0000
0100
0000
0000
0000
0010
0000
0100
0000
1000
0010
0000
0000
0000
0010
,
0000
0000
0000
0100
0000
0000
0000
0001
0000
0010
0000
0010
0000
0000
0000
0100
,
0000
0000
0000
0001
0000
0000
0000
0100
0000
0000
0010
1000
0000
0000
0000
0000
,
0100
0000
0000
0000
0001
0000
0000
0010
0000
0100
0000
1000
0000
0010
0000
0000
,
0000
0100
0000
0000
0000
1000
0001
0000
0000
0100
0000
0010
0000
0000
1000
0000
,
0000
0101
0000
0010
0000
1000
0100
0010
,
0100
0000
0010
0000
0000
0000
0000
1001
0000
0000
0010
0000
0000
0100
0000
0001
,
0000
0000
0000
1000
0000
0000
0000
0010
0000
0000
0000
0100
0000
0000
0010
0000
,
1000
0000
0100
0000
1001
0000
0100
0010
,
0000
1001
0000
0000
0000
0100
0000
0000
0000
0010
0000
0100
0000
0010
0000
0100
,
0000
0001
0000
0100
0000
0010
0000
1000
0000
0010
0000
0000
0100
0000
0010
0000
,
1000
0000
0001
0000
0100
0000
0010
0000
0100
0000
0000
0001
0000
0100
0000
0010
,
0000
0100
0000
1000
0000
0000
0000
0000
0000
0000
0000
1000
0010
0000
0000
0100
,
0000
0010
0000
1000
0001
0000
0000
0000
0100
0000
0000
0010
0000
1000
0000
0100
,
0000
0010
0000
0000
1001
0000
0000
0000
0000
0100
0010
0000
0000
0100
0000
0000
,
0000
0010
0000
0001
1000
0000
0000
0000
0000
0010
0000
0000
0000
0001
0000
0000
,
0000
0010
0000
0001
0000
0010
0000
0000
0000
0100
0000
0000
0000
0000
1010
0000
,
0000
0100
0000
0010
0000
0000
1001
0000
0000
0000
0100
0000
0000
0000
0100
0000
,
0000
0010
0000
0100
0000
0010
0000
0001
0000
0000
0000
1000
0000
0000
0000
0100
,
0000
0000
0000
0000
0010
0100
0000
0000
1001
0000
0000
0100
0000
0000
0000
0000
,
0010
0000
0000
0000
0100
0000
0000
0000
0000
1000
0000
0000
0000
0100
0000
0000
,
0000
0010
0000
0000
0000
0100
0000
0010
0000
1000
0001
0000
0000
0000
0010
0000
,
0010
1000
0000
0100
0000
0010
1000
0100
,
0010
0100
0010
0001
0100
0010
0100
1000
,
0000
0010
0000
0100
0000
0010
0000
0100
0000
0010
0000
1000
0000
0100
0000
1000
,
0000
0100
0000
0000
0010
0000
0100
0000
0010
0000
0100
0000
0001
0000
0100
0000
,
0001
0000
0010
0000
0001
0000
0000
0010
0001
0000
0000
0010
0000
0100
0000
0010
,
0000
0100
0000
0010
0000
1000
0000
0100
0000
0000
1000
0100
0000
0010
0000
0100
,
0000
0000
0010
0000
0100
0001
0000
0100
0000
0001
0000
0100
0000
0000
0010
0000
,
1000
0000
0010
0000
0100
0000
0010
0000
0100
0010
0000
0100
0000
0000
0000
0001
,
0000
0100
0000
0010
0000
0100
0000
0010
0000
1000
0000
0100
0000
0000
0010
0000
,
1000
0000
0010
0000
0100
0000
0001
0000
0010
0000
0100
0000
0000
0100
0000
0010
,
0000
1000
0000
0001
0000
0100
0000
0010
0000
0100
0000
0010
0000
0100
0000
0001
,
0000
1000
0000
0000
0010
0000
0100
0000
0001
0000
0010
0000
0100
0000
1000
0000
,
0100
0000
0010
0000
0100
0000
0010
0000
0001
0000
0010
0000
0000
0001
0000
0010
,
0001
0000
0000
1000
0000
0010
0000
0100
0000
1000
0000
0100
0000
0010
0000
0100
,
0000
0010
0000
0001
0000
0000
0010
0000
0100
0000
1000
0000
0100
0000
0010
0000
,
0100
0000
0000
0000
0000
1000
0000
0001
0000
0100
0000
0010
0000
0100
0000
0010
,
0000
1000
0000
0001
0000
0010
0000
0100
0000
0010
0000
0100
0000
0001
0000
0000
,
0010
0000
0100
0010
0000
1000
0001
0000
0000
0000
0010
1000
0000
0000
0010
0000
,
0000
0000
0100
0000
0010
0000
1000
0000
0000
0100
0000
0010
0000
0000
0000
1001
,
0000
0000
0000
0100
0000
0010
0000
0000
1001
0000
0000
0000
1001
0000
0000
0010
,
0000
0000
0000
0000
1000
0100
0000
0000
0010
1000
0000
0000
1010
0000
0000
0000
,
0100
0000
0010
0000
1000
0100
0000
0000
0001
1000
0000
0000
1000
0001
0000
0000
,
0000
0010
0000
0000
0000
1010
0000
0000
0000
0100
0000
0000
0000
0010
0000
0000
,
0000
0100
0001
0000
0000
1000
0010
0000
0000
0000
0010
0000
0000
0000
1000
0010
,
0000
0000
0010
0000
0000
0000
0100
0000
0000
0010
0000
1001
0000
0000
0000
1001
,
0000
0000
0000
0010
0000
1000
0000
0100
0000
0010
0000
1000
0001
0000
0000
0100
,
0000
0000
0000
0010
0000
0000
0000
0000
0100
0000
0010
0000
1000
0000
0000
0000
,
1000
0000
0000
0000
0100
0000
0010
0000
0100
0000
0010
0000
0000
1001
0000
0000
,
0000
1001
0000
0000
0000
0010
0000
0000
0000
0100
0000
0010
0000
1000
0000
0000
,
0000
0100
0010
0000
0000
0100
0001
0000
0000
0000
1010
0000
0000
0000
0000
1000
,
0000
0000
0000
0100
0000
0000
0000
0010
0000
0000
0000
0100
0000
0000
0000
1000
,
0001
0000
0000
1000
0001
0000
0000
0000
0010
0000
0000
0000
0100
0000
0000
0000
,
1000
0100
0010
0100
,
0000
1001
0000
0000
0000
0010
0000
0000
0000
0100
0000
0000
0000
0010
0000
0000
,
0000
0000
1000
0000
0000
0100
0000
0000
0000
0000
0010
0000
0000
0000
0100
0000
,
0000
0000
1001
0000
0000
0000
1010
0000
0000
0000
1000
0100
0000
0000
0000
1010
,
0000
0000
0000
0100
0000
0000
0000
0010
0000
0000
0000
0100
0000
0000
0000
0000
,
0010
0000
0000
0000
1001
0000
0000
0000
0101
0000
0000
0000
0001
0010
0000
0000
,
0100
0001
0000
0000
0000
0100
0000
0000
0000
0010
0000
0000
0000
0100
0000
0000
,
0000
0100
0000
0000
0000
1000
0001
0000
0000
0110
0000
0000
0000
1000
0001
0000
,
0000
0100
0010
0000
0000
0000
1000
0000
0000
0000
0100
0000
0000
0000
0010
0000
,
0000
0000
0100
0000
0000
0000
1010
0000
0000
0000
0101
0000
0000
0000
1000
0010
,
0000
0000
0100
0001
0000
0000
0000
1000
0000
0000
0000
0100
0000
0000
0000
0010
,
0000
0000
0000
0100
0000
0000
0000
0010
0001
0000
0000
1000
0001
0000
0000
0010
,
0001
0000
0000
0000
1001
0000
0000
0000
0000
1000
0000
0000
0000
0100
0000
0000
,
0000
0010
0000
0000
0000
0100
0000
0000
0000
0100
0001
0000
0000
0100
0010
0000
,
0000
0000
1100
0000
0000
0000
1010
0000
0000
0000
1000
0000
0000
0000
0000
0100
,
0000
0000
0000
0010
0000
0000
0000
0100
0000
0000
1000
0100
0000
0000
1000
0010
,
0000
0000
0000
0101
0000
0000
0000
0011
0000
0000
0000
0100
0000
0000
0000
0000
,
0010
0100
0010
1001
,
0110
0000
0000
0000
1000
0000
0000
0100
0000
0010
0000
0001
0000
2000
0000
0000
,
0000
0000
0100
0000
0000
0010
0000
0000
0000
0001
3000
0000
0000
0000
0100
0000
,
0000
0000
0100
0000
0000
2000
0000
0000
0100
0000
0010
0000
0001
0000
0000
0010
,
0000
3000
0100
0000
0000
0000
0100
0000
0000
0000
0100
0000
0000
0000
0000
0000
,
0000
0000
0020
0000
0000
0000
0000
1000
0000
0000
0000
0000
0001
0000
0000
0000
,
0130
0000
0000
0000
0100
0000
0000
0000
0010
0000
0000
0000
0001
0000
1000
0010
,
0000
0000
0000
0000
0000
0000
0000
0000
0000
0000
0010
0000
1000
0100
0000
0000
,
0010
0001
0000
0000
0010
0100
0000
1000
0000
0100
0000
0010
0000
0100
0000
0010
,
0000
0001
0010
0100
1000
0100
0010
0100
,
0010
0000
1000
0001
0000
0000
0000
0000
0000
0000
0000
1010
0000
0000
0000
0100
,
0000
0000
0000
1000
0000
0000
0000
0100
0000
0000
0000
0000
0010
0000
0000
0000
,
0001
0000
0010
0000
1000
0000
0000
0000
0100
0000
0000
0000
1000
0001
0000
0000
,
0100
0000
0010
0000
0000
1000
0000
0000
0100
0000
0000
0000
0000
1001
0000
0000
,
0000
0010
0000
0000
0001
0010
0000
0000
0000
0000
1000
0000
0000
0000
0100
0000
,
0000
0000
0010
0000
0100
0000
1000
0001
0000
0000
0100
0000
0000
0000
0000
0010
,
0000
1000
0100
0000
0010
0000
0000
0001
0000
0000
0000
0100
0000
0000
0000
0010
,
0000
0000
0000
0100
0000
0000
0010
0000
1000
0000
0000
0000
0100
0000
0000
0010
,
0000
0000
0000
0000
1000
0000
0001
0000
0100
0000
0000
0000
0000
0010
0000
0000
,
0100
0000
0000
0000
0000
0010
0100
0000
0000
1000
0001
0000
0000
0100
0000
0010
,
0000
1000
0000
0000
0000
0100
0000
0000
0010
0000
0100
0000
0000
0000
1000
0000
,
0000
0000
0001
0000
0000
0000
0000
0010
0000
0100
0000
1000
0000
0000
0000
0010
,
0000
0000
0000
1100
0000
0000
0000
0100
0000
0010
0000
0000
0100
0000
0000
0000
,
0010
0000
0000
0000
0101
0000
0000
0000
0010
0000
0100
0000
0000
1010
0000
0000
,
0100
0000
0000
0010
1000
0000
0000
0000
0100
0000
0010
0000
0000
1000
0000
0000
,
0000
0100
0000
0000
0000
0010
0000
0000
0000
0100
0000
0010
0000
0000
1001
0000
,
0000
0100
0010
1000
0000
0100
0010
0000
;

//---------------dance-single - ----------------
#NOTES:
     dance-single:
     :
     Hard:
     1:
     0.971,1.000,0.033,0.089,1.000,1206.000,6.000,16.000,0.000,0.000:
0000
0000
0000
0000
0000
0000
2000
0000
0000
0100
0000
0000
0000
0010
0000
0000
,
0000
0001
0000
0000
0000
0000
0010
0000
3000
0000
0100
0000
0000
0000
1000
0000
0000
0000
0010
0000
0000
0000
0100
0000
0000
0000
1000
0000
0000
0000
0000
0000
,
0000
0000
0001
0000
0000
0100
0000
0000
0000
0000
0010
0000
0000
0000
0000
0100
0000
0000
0000
0010
0000
0000
0000
0100
0000
0000
0000
1000
0000
0001
0000
0000
,
0100
0000
0000
0000
0010
0000
0000
0000
1000
0000
0000
0000
0010
0000
0000
0000
0100
0000
0000
0000
0010
0000
0000
0000
0100
0000
0000
0000
1000
0001
0000
0000
,
0000
0010
0000
0000
0000
0100
0000
0000
0010
0000
0000
0000
0000
1000
0000
0000
0000
0001
0000
0000
0000
0100
0000
0000
0000
0010
0000
0000
0000
0000
1000
0001
,
0000
0000
0000
0100
0000
0000
0000
0010
0000
0000
0100
0000
0000
0000
0000
1000
0010
0000
0100
0000
0000
0000
0000
1000
0010
0000
0100
0000
0000
0000
0000
0001
,
0000
0000
0000
0010
0000
0000
0000
0100
0000
0000
0000
0010
0000
0000
0000
0000
1000
0000
0000
0010
0000
0000
0000
0100
0000
0000
0000
0010
0000
0000
0000
0100
,
0000
0000
0000
0010
0000
0000
0000
0100
0000
0000
0000
0010
0000
0000
0000
0100
0001
0000
0000
0010
0000
0000
0000
0000
0100
0001
0000
0000
0000
0010
0000
0000
,
0100
0000
0000
0000
0000
1000
0000
0000
0000
0010
0000
0000
0000
0100
0000
0000
0000
1000
0000
0000
0000
0000
0010
0000
0000
0100
0000
0000
0000
0010
0000
0000
,
0000
0100
0000
0000
0000
0000
0001
0000
0000
0000
0010
0000
0000
0000
0100
0000
0000
0000
0000
1001
0000
0000
0000
0000
0001
0000
1000
0000
0000
0000
0000
0000
,
0000
0000
0000
0010
0000
0000
0000
0000
0000
0000
0000
1000
0000
0000
0000
0000
0000
0000
0000
0010
0000
0000
0000
0000
1000
0000
0000
0000
0100
0000
0000
0010
,
0000
0000
0000
0000
0100
0000
0000
0000
0010
0000
0000
0000
0100
0000
0000
0000
0010
0000
0000
0000
0000
0000
0100
0001
0000
0000
0000
0000
0000
0000
0000
0100
,
0000
0001
0000
0000
0000
0000
0000
0000
0010
0000
0000
1000
0000
0000
0000
0000
0100
0000
0000
0000
0010
0000
0000
0000
1000
0000
0000
0000
0010
0000
0000
0000
,
0100
0000
0000
0000
0001
0000
0000
0000
0000
0010
0000
0000
0000
0100
0000
0000
0000
0000
0010
0000
0000
0100
0000
0000
0000
0000
1000
0001
0000
0000
0100
0000
,
0000
0000
1000
0001
0000
0000
0100
0000
0000
0000
0000
0010
0000
0000
0000
1000
0000
0000
0000
0010
0000
0000
0000
0100
0000
0000
0000
1000
0000
0000
0000
0000
,
0010
0000
0000
0100
0000
0000
0000
0001
0000
0000
0000
0010
0000
0000
0000
0100
0000
0000
0000
0000
0010
0000
0000
0000
0001
0000
0000
0000
1000
0000
0001
0000
,
0000
0000
0000
0000
0000
0000
1000
0001
0000
0000
0000
0000
0000
0000
0010
0000
0000
0000
1000
0000
0000
0000
0100
0000
0000
0000
0010
0000
0000
0000
0000
1000
,
0001
0000
0000
0010
0000
0000
0100
0000
0000
0000
0000
1000
0000
0000
0000
0010
0000
0000
0000
1000
0000
0000
0000
0010
0000
0000
0000
0100
0000
0000
0000
0000
,
1000
0000
0000
0000
0010
0000
0000
0100
0000
0000
0000
0001
0000
0000
0000
0000
0010
0000
0000
0000
0100
0000
0000
0000
0010
0000
0000
0100
0000
0000
0000
0000
,
0001
0000
0000
0000
0100
0000
0000
0000
0010
0000
0000
0000
1000
0000
0000
0000
0100
0000
0000
0000
0000
0010
0000
0000
0000
0100
0000
0000
0000
0010
0000
0000
,
0000
0000
0001
0000
0000
0000
1000
0000
0000
0000
0010
0000
0000
0000
0000
0100
0000
0000
0000
0000
1000
0001
0000
0000
0000
0000
0000
0000
1000
0010
0000
0000
,
0000
0000
0000
0000
0000
0010
0000
0000
0000
1000
0000
0000
0000
0010
0000
0000
0000
0100
0000
0000
0000
0001
0000
0000
0000
0000
0000
0010
0000
0000
0000
0100
,
0000
0000
0000
0010
0000
0000
0000
1000
0000
0000
0000
0000
0000
0000
0000
0000
0000
0000
0000
0000
0000
0010
0000
0000
0000
0000
1000
0000
0000
0000
0100
0000
,
0000
0000
0010
0000
0000
0000
0000
0001
0000
0000
0000
0010
0000
0000
0000
0100
0000
0000
0000
0010
0000
0000
0000
0100
0000
0000
0000
0001
0000
0000
0000
0100
,
0000
0000
0000
0000
1000
0000
0000
0000
0010
0000
0000
0000
0100
0000
0000
0000
0010
0000
0000
0000
0100
0000
0000
0000
0000
0010
1000
0000
0000
0100
0000
0000
,
0010
0000
0000
0000
0001
0000
0000
0000
0000
1000
0001
0000
0000
0000
0000
0000
0000
0000
0010
0000
0000
0000
0000
1000
0000
0000
0000
0100
0000
0000
0000
0000
,
0000
0000
0010
0000
0000
0000
0000
1000
0000
0000
0000
0100
0001
0000
0000
0000
0010
0000
0000
0100
0000
0000
0000
1000
0000
0000
0000
0000
0010
0000
0000
0000
,
0100
0000
0000
0000
0010
0000
0000
0000
0100
0000
0000
0000
0010
0000
0000
0000
0000
0000
0001
0000
0000
0000
0000
1000
0000
0000
0000
0010
0000
0000
0000
0100
,
0000
0000
0000
0010
0000
0000
0000
0100
0000
0000
0100
0010
0000
0001
0000
0000
1000
0000
0000
0000
0010
0000
0000
0100
0000
0000
0000
0000
0010
0000
0000
0000
,
0010
0000
0000
0000
0100
0000
0000
0010
0000
0000
0000
0000
0001
0000
0000
0000
0010
0000
0000
0000
0100
0000
0000
0000
0000
1000
0000
0000
0000
0100
0000
0000
,
0000
0010
0000
0000
0000
0100
0000
0000
0010
0000
0000
0000
0000
0000
0001
0000
0000
0010
0000
0000
0000
0000
0100
0000
0000
0000
1000
0000
0000
0000
0100
0000
,
0000
0000
0000
0010
0000
0000
0100
0000
0000
0000
0010
0000
0000
0000
0001
0000
0000
0000
0000
0010
0000
0000
0000
0100
0000
0000
0000
1000
0000
0000
0100
0000
,
0000
0000
0000
1000
0000
0000
0000
0000
0100
0000
0000
0000
1000
0000
0000
0010
0000
0000
0000
0000
0100
0000
0000
0000
0001
0000
0000
0000
0000
0010
0000
0000
,
0000
0100
0000
0000
1000
0000
0001
0000
0000
0000
0100
0000
0000
0000
0010
0000
0000
0000
1000
0000
0000
0000
0010
0000
0000
0000
0100
0000
0000
0000
0001
0000
,
0000
0000
0010
0000
0000
0000
0000
1000
0001
0000
0000
0000
0000
0000
0000
0010
0000
0000
0000
1000
0000
0000
0000
0010
0000
0000
0000
0100
0000
0000
0000
0010
,
0000
0000
0000
0000
0000
0000
0000
0000
1000
0001
0000
0000
0000
0000
0000
0000
0010
0000
0000
0000
1000
0000
0000
0000
0010
0000
0000
0000
0000
0100
0000
0000
,
0001
0000
0000
0000
0000
0010
0000
0000
0000
1000
0000
0000
0000
0001
0000
0000
0010
0000
0000
0000
0000
0000
1000
0000
0000
0000
0010
0000
0000
0000
0100
0000
,
0000
0000
0010
0000
0000
0000
0100
0000
0000
0000
0100
0000
0001
0000
0000
0000
0000
0000
0000
0010
0000
0000
0000
1000
0000
0000
0000
0100
0000
0000
0000
0010
,
0000
0000
0000
0000
0100
0000
0000
0000
0010
0000
0000
0000
1000
0001
0000
0000
0000
0000
0000
0000
0000
0010
0000
0000
0000
1000
0000
0000
0000
0010
0000
0000
,
0000
0100
0000
0000
0001
0000
0000
0000
0000
0100
0000
0000
0000
0000
1000
0001
0000
0000
0000
0000
0000
0000
0010
0000
0000
0000
1000
0000
0000
0000
0010
0000
,
0000
0000
0100
0000
0000
0000
0001
0000
0000
0000
0000
0010
0000
0000
0000
0100
0000
0000
0000
0010
0000
0000
0000
0000
0100
0000
0000
0010
0000
0000
0000
0000
,
0000
0001
0000
0000
0000
1000
0000
0000
0000
0010
0000
0000
0000
0100
0000
0000
0000
1000
0001
0000
0000
0100
0000
0000
0000
0010
0000
0000
0000
0010
0000
0000
,
0000
0000
1000
0100
0000
0000
0001
0000
0000
0000
0010
0000
0000
0000
0100
0000
0000
0000
0010
0000
0000
0000
0000
1000
0000
0000
0000
0000
0100
0000
0000
0000
,
0010
0000
0000
0000
0000
0010
0000
0000
0000
1000
0000
0000
0000
0001
0000
0000
0000
0100
0000
0000
0000
0010
0000
0000
0000
0100
0000
0000
0000
0010
0000
0000
,
0000
1000
0000
0000
0000
0001
0000
0000
0000
0100
0000
0000
0000
0010
0000
0000
0000
0000
0100
0000
0000
0000
0010
0000
0000
0000
0001
0000
0000
0000
0000
1000
,
0000
0000
0010
0000
0000
0000
0100
0000
0000
0000
0000
0000
0000
0000
0010
0000
0000
0000
0000
0000
0000
0000
0000
0001
0000
0000
0000
0000
0000
0000
0010
0000
,
0000
0000
0100
0000
0000
0000
0000
0000
0000
0000
0000
1000
0000
0000
0000
0100
0000
0000
0000
0010
0000
0000
0000
0000
0001
0000
0000
0000
0000
0000
0000
0000
,
0010
0000
0000
0000
0000
0000
0000
0000
0100
0000
0000
0000
0000
0000
0000
0000
0000
1000
0000
0000
0000
0000
0000
0000
0000
0000
1000
0001
0000
0000
0000
0000
,
0000
0000
0010
0000
0000
0000
0000
1000
0000
0000
0000
0010
0000
0000
0000
0100
0000
0000
0000
0001
0000
0000
0000
0010
0000
0000
0000
0100
0000
0000
0000
0000
,
0010
0000
0000
0000
0000
0001
0000
0000
0000
0000
0001
0000
0000
0000
0010
0000
0000
0000
0100
0000
0000
0000
0010
0000
0000
0100
0000
0000
0000
0010
0000
0000
,
0000
0100
0000
0000
0000
0010
0000
0000
0000
0100
0000
0000
0000
2000
0000
0000
0000
0000
0000
0000
0000
0100
0000
0000
0000
0000
0010
0000
0000
0000
0001
0000
,
0000
0000
0000
0000
0000
0000
0000
0010
0000
0000
0000
0100
0000
0000
0000
0000
0000
3000
0010
0000
0000
0000
0100
0000
0000
0000
0000
1000
0000
0000
0000
0010
,
0000
0000
0000
0000
0000
0000
0000
0000
1000
0001
0000
0000
0000
0000
0000
0000
0010
0000
0000
0000
0000
0100
0000
0000
0000
0010
0000
0000
0000
0100
0000
0000
,
0000
1001
0000
0000
0000
0010
0000
0100
0000
0001
0000
0010
0000
0100
0000
0010
,
0000
0000
1000
0001
0000
0000
0000
0000
0000
0000
0000
0010
0000
0000
0000
0000
0000
0000
0000
0100
0000
0000
0000
0001
0000
0000
0000
0010
0000
0000
0000
0001
,
0000
0000
0000
0100
0000
0000
0000
0010
0000
0000
0000
0000
1000
0000
0000
0000
0010
0000
0000
0000
0000
0100
0000
0000
0000
0001
0000
0000
0000
0000
1000
0000
,
0000
0010
0000
0000
0000
0000
0100
0000
0000
0000
0001
0000
0000
0000
0010
0000
0000
0000
0100
0000
0000
0000
0000
0001
0000
0000
0000
1000
0000
0000
0000
0010
,
0000
0000
0000
0100
0000
0000
0000
0001
0000
0000
0000
0010
0000
0000
0000
0100
0000
0000
0000
0010
0000
0000
0000
0000
1000
0001
0000
0000
0000
0100
0000
0000
,
0000
0010
0000
0000
0000
0100
0000
0000
0000
1000
0010
0000
0000
0001
0000
0000
0000
0010
0000
0000
0000
0100
0000
0000
0020
0000
0000
0000
0000
0000
0000
0000
,
0000
0000
1030
0000
0100
0000
0000
0000
0000
0010
0000
0000
0000
0100
0000
0000
0000
0002
0000
0000
0000
0000
0000
0000
0000
0000
0000
0100
0000
0000
0000
0010
,
0000
0000
0000
0100
0000
0000
0000
2000
0003
0000
0000
0010
0000
0000
0000
0100
0000
0000
0000
0010
0000
0000
0000
0000
3002
0000
0000
0000
0000
0100
0000
0000
,
0000
0000
0000
0000
0010
0000
0000
0000
0000
0100
0000
0000
0000
2000
0000
0003
0000
0010
0000
0000
0000
0100
0000
0000
0000
0010
0000
0000
3000
0002
0000
0000
,
0000
0000
0100
0000
0000
0000
0010
0000
0000
0000
0100
0000
0000
0003
0000
2000
0000
0000
0000
0010
0000
0000
0000
0000
0100
0000
0000
0010
0000
0000
0000
3000
,
0002
0000
0000
0000
0100
0000
0000
0000
0010
0000
0000
0000
0100
0000
0000
0000
0000
1000
0000
0000
0000
0100
0000
0000
1000
0000
0000
0000
0010
0000
0000
0000
,
0000
0100
0000
0000
0000
2000
0003
0000
0000
0010
0000
0000
0000
0100
0000
0000
0000
0000
3001
0000
0000
0000
0000
1000
0000
0000
0000
0010
0000
0000
0100
0000
,
0000
0000
0001
0000
0000
0000
1000
0000
0000
0000
0010
0000
0000
0000
0100
0000
0000
0000
0001
0000
0000
0000
0000
0010
0000
0000
0000
0100
0000
0000
0000
0010
,
0000
0000
0000
0001
0000
0000
0000
0010
0000
0000
0000
0000
0100
0000
0000
0000
0000
1000
0000
0000
0000
0100
0000
0000
0000
0010
0000
0000
0100
0000
0000
0000
,
0000
0010
0000
0000
0000
0001
0000
0000
0000
0000
0010
0000
0000
0000
0100
0000
0000
0000
0000
0010
0000
0000
0000
1000
0000
0000
0000
0000
0000
0000
0100
0000
,
0000
0000
0010
0000
0000
0000
1000
0000
0000
0000
0000
0001
0000
0000
0000
0100
0000
0000
0010
0000
0000
0000
0000
0100
1000
0000
0000
0000
0000
0000
0000
0010
,
0000
0000
0000
0000
0100
0000
0000
0000
0001
0000
0000
0000
0010
0000
0000
0100
0000
0000
0000
0000
0001
0000
0000
0000
0000
1000
0000
0000
0000
0010
0000
0000
,
0100
0000
0000
0000
0000
0010
0000
0000
0000
0001
0000
0000
0000
0000
0010
0000
0000
0000
0100
0000
0000
0000
0010
0000
0000
0000
0000
1000
0000
0000
0000
0001
,
0000
0000
0000
0100
0000
0000
0010
0000
0000
0000
0000
0100
0000
0000
0000
0010
0000
0000
0000
0100
0000
0000
0000
0010
0000
0000
0000
0100
0001
0000
0000
0010
,
0000
0000
0000
0100
0000
0000
0000
0000
0010
0000
0000
0000
1000
0000
0000
0000
0100
0000
0000
0000
0010
0000
0000
0000
0100
0000
0000
0000
0000
1000
0001
0000
,
0000
0000
0010
0000
0000
0100
0000
0000
0000
0010
0000
0000
0000
0100
0000
0000
0000
0001
0000
0000
0000
0000
0010
0000
0000
0000
0100
0000
0000
0000
0001
0000
,
0000
0000
0000
0000
0000
0000
0000
0010
0000
0000
0000
0100
0000
0000
0000
0010
0000
0000
0000
0000
0001
0000
0000
0000
0010
0000
0000
0000
0100
0000
0000
0000
,
2000
0000
0000
0000
0000
0000
0000
0000
0000
0100
0000
0000
0010
0000
0000
3000
0000
0002
0000
0000
0000
0100
0000
0000
0000
0010
0000
0000
0000
0100
0000
0000
,
0000
1000
0000
0003
0000
0010
0000
0000
0000
0100
0000
0000
0000
0010
0000
0000
0000
0001
0000
0000
0000
0000
0010
0000
0000
0000
0100
0000
0000
0000
0000
0010
,
0000
0000
0000
0000
0100
0000
0000
0000
0000
0010
0000
0000
0000
0000
0000
0000
0000
0000
0000
1000
0000
0000
0000
0100
0000
0000
0000
0000
1000
0000
0000
0000
,
0010
0000
0000
0000
0000
0100
0000
0000
0001
0000
0000
0000
0000
0010
0000
0000
0000
0100
0000
0000
0000
0000
0100
0000
0000
0000
0010
0000
0000
0000
0100
0000
,
0000
0000
0001
0000
0000
0000
0000
0010
0000
0000
0000
0100
0000
0000
0010
0000
0000
0000
0100
0000
0000
0000
0000
1000
0000
0000
0000
0010
0000
0000
0000
0100
,
0000
0000
0000
0000
0000
0000
1000
0001
0000
0000
0000
0010
0000
0000
0000
0000
0100
0000
0000
0000
1000
0000
0000
0000
0010
0000
0000
0000
0000
0100
0000
0000
,
0000
0010
0000
0000
0100
0000
0000
0000
0000
1000
0010
0000
0000
0100
0000
0000
0010
0000
0000
0000
0000
0000
0000
0000
0000
0000
0100
0001
0000
0000
0010
0000
,
0000
0000
0100
0000
0000
0000
0000
1000
0000
0000
0000
0010
0000
0000
0000
0100
0000
0000
0000
0000
0010
0000
0000
0000
0000
0001
0000
0000
0000
0010
0000
0000
,
0000
0100
0000
0000
0000
0010
0000
0000
0000
0000
0100
0000
0000
0010
0000
0000
0000
0100
0000
0000
0000
0010
0000
0000
0000
0000
0001
0000
0000
0010
0000
1000
,
0000
0100
0000
0000
0010
0001
0000
0000
0000
0010
0100
0000
1000
0100
0000
0010
0000
0001
0000
0010
0100
0000
1000
0000
0000
0100
0010
0001
0000
0000
0000
0100
,
0000
0000
0000
1100
0000
0010
0000
0000
0010
0100
0000
0010
0000
0100
0000
0000
0010
0000
0001
0000
0000
0010
0100
0000
0000
1000
0000
0000
0000
0000
0000
0000
,
0001
0000
0000
0100
0000
0000
0000
0010
0000
0000
0000
0100
0000
0000
0000
0000
1000
0001
0000
0000
0000
0100
0000
0000
0000
0010
0000
0000
0000
0100
0000
0000
,
0000
0010
0000
0000
0000
0001
0000
0000
0000
1000
0000
0000
0000
0010
0000
0000
0000
0000
0100
0000
0000
0000
0001
0000
0000
0000
0010
0000
0000
0000
0100
0000
,
0000
0000
0000
1000
0001
0000
0000
0000
0010
0000
0000
0000
1000
0100
0000
0010
0000
0000
0000
0000
0100
0000
0000
0000
0010
0000
0000
0000
0100
0000
0000
0000
,
0010
0000
0001
0000
1000
0000
0000
0010
0000
0000
0000
0000
1000
0000
0010
0000
0000
0100
0000
0000
0000
0010
0000
0000
0000
0000
0100
0000
0000
0010
0000
0000
,
0000
0000
1000
0000
0000
0000
0001
0000
0000
0000
0100
0000
0000
0000
0010
0000
0000
0000
0100
0000
0000
0000
0000
0010
0000
0000
0000
0001
0000
0000
0000
0010
,
0000
0000
0100
0000
0000
0000
1000
0000
0000
0000
0010
0000
0000
0000
0000
0100
0000
0000
0010
0000
0000
0000
0000
0001
0000
0000
0000
0010
0000
0000
0000
0100
,
0000
0000
0000
0010
0000
0000
0000
1000
0000
0001
0000
0000
0010
0100
0000
1000
0000
0100
0000
0000
0010
0001
0000
0000
0010
0100
1000
0000
0100
0000
0000
0001
,
0000
0000
0010
0100
1000
0000
0000
0100
0010
0000
0001
0000
0010
0100
0000
1000
0000
0100
0000
0000
0010
0001
0000
0000
0010
0100
0000
1000
0000
0100
0000
0010
,
0000
0000
0000
0100
0000
0000
0010
0000
0000
0000
0000
1000
0000
0002
0000
0000
0000
0000
0000
0000
0100
0000
0000
0000
1000
0000
0000
0000
0100
0000
0000
0010
,
0000
0000
0000
0000
0100
0000
0000
0000
2000
0000
0003
0000
0010
0000
0000
0000
0000
0100
0000
0000
0000
0010
0000
0000
0000
3002
0000
0000
0000
0000
0100
0000
,
0000
0000
0010
0000
0000
0100
0000
0000
0000
0000
1000
0000
0000
0000
0100
0000
0000
0000
0000
1000
0000
0000
0000
0010
0000
0000
0000
0100
0000
0000
0000
1000
,
0000
0003
0010
0000
0000
0000
0100
0000
0000
0000
0001
0000
0000
0000
0000
1000
0000
0000
0000
0100
0000
0000
0000
0010
0000
0000
0000
0001
0000
0000
0000
0000
,
0010
0000
0000
0000
0000
0100
0000
0000
0000
0010
0000
0000
0000
1000
0000
0000
0000
0001
0000
0000
0000
0100
0000
0000
0000
0010
0000
0000
0000
0100
0000
0000
,
0000
0000
0010
0000
0000
1000
0000
0000
0000
0000
0001
0000
0000
0000
0100
0000
0000
0000
0010
0000
0000
0000
1000
0000
0000
0000
0000
0010
0000
0000
0000
1000
,
0000
0000
0000
0001
0000
0000
0000
0000
0100
0000
0000
0010
0000
0000
0000
0000
0010
0000
0000
0000
0100
0000
0000
0000
0010
0000
0000
0000
0000
0100
0000
0000
,
0000
0001
0000
0000
0000
1000
0000
0000
0000
0010
0000
0000
0000
0100
0000
0000
0010
0000
0000
0000
0001
0000
0000
0000
0000
0000
0001
0000
0000
0000
0001
0000
,
0000
0000
1000
0000
0000
0000
0010
0000
0000
0000
0100
0000
0000
0000
0010
0000
0000
0000
1000
0000
0000
0000
0000
0001
0000
0000
0100
0000
0000
0000
0000
0010
,
0000
0000
0000
0100
0000
0000
1000
0000
0000
0010
0000
0000
0000
0010
0000
1000
0000
0000
0010
0000
0000
0000
0100
0000
0000
0000
0000
0100
0000
0000
0000
0001
,
0000
0000
0000
0010
0000
0000
0000
0000
0100
0000
0000
0000
0010
0000
0000
0000
0100
0000
0000
0000
0010
0000
0000
0000
0000
0001
0000
0000
0000
0000
1000
0000
,
0000
0000
0010
0000
0000
0000
0100
0000
0000
0000
0010
0000
0000
0000
1000
0000
0000
0000
0000
0010
0000
0000
0100
0000
0000
0000
0000
0001
0000
0000
0000
0000
,
0010
0000
0000
0000
0000
1000
0000
0000
0000
0000
0000
0000
0001
0000
0000
0000
0000
0000
0000
0000
0100
0000
0000
0000
0000
0000
0000
0000
0000
0000
1000
0000
,
0000
0100
0000
0000
0000
0000
0010
0000
0000
0001
0000
0000
0000
0000
0010
0000
0000
0000
0100
0000
0000
0000
0010
0000
0000
0000
0100
0000
0000
0000
0000
1000
,
0001
0000
0100
0000
0000
0000
0000
1000
0001
0000
0100
0000
0000
0000
0000
0010
0000
0000
0000
0100
0000
0000
0000
0010
0000
0000
0000
0100
0000
0000
0000
0000
,
1000
0000
0000
0000
0001
0000
0000
0100
0000
0000
0000
0000
0010
0000
0000
0000
0100
0000
0000
0000
0010
0000
0000
0000
0000
0100
0000
0000
0000
0010
0000
0000
,
0000
1000
0000
0010
0000
0000
0100
0000
0000
1000
0000
0010
0000
0000
0100
0000
0000
0000
0000
0100
0000
0000
0001
0000
0000
0000
0010
0000
0000
0000
0000
0100
,
0000
0000
0000
0010
0000
0000
0000
0100
0000
0000
0000
0010
0000
0000
0000
0100
0000
0000
0000
0001
0000
0000
0000
0100
0000
0000
0000
0010
0000
0000
0000
0100
,
0000
0000
0000
1000
0001
0000
0000
0100
0000
0000
0000
0000
1000
0001
0000
0000
0100
0000
0000
0000
0010
0000
0000
0000
0100
0000
0000
0000
0000
0010
0000
0000
,
0001
0000
0000
0000
0000
1000
0000
0000
0000
0010
0000
0000
0000
0000
0000
0100
0000
0000
0000
0001
0000
0000
0010
0000
0000
0000
0100
0000
0000
0000
0010
0000
,
0000
0000
0100
0000
0000
0000
1000
0000
0001
0000
0000
0100
0000
0000
0000
1000
0001
0000
0000
0100
0000
0000
0000
0000
0100
0000
0000
0001
0000
0000
0000
0000
,
0010
0000
0000
0000
0001
0000
0000
0000
0100
0000
0000
0000
0000
0010
0000
0000
0000
0100
0000
0000
0000
0010
0000
0000
0000
0100
0000
0000
0000
0010
0000
0000
,
0000
0100
0000
0000
0000
0000
0000
0000
0000
0000
1001
0000
0000
0010
0000
0000
0000
0000
1000
0100
0000
0000
0010
0000
0000
0000
1000
0000
0001
0000
0010
0000
,
0000
0000
0100
0000
0000
0000
0000
0010
0000
0000
0000
0100
0000
0000
0000
0010
0000
0000
0000
0100
0000
0000
0000
0010
0000
0000
0000
0100
0000
0000
0000
0001
,
0000
0000
0000
0100
0000
0000
0000
0000
0010
0000
0000
0000
1000
0001
0000
0000
0000
0000
0001
0000
0000
0100
0000
0000
0001
0000
0000
0000
0010
0000
0000
0000
,
0010
0000
0000
0000
0000
0100
0000
0000
0010
0000
0000
0000
0000
0000
0001
0000
0000
0000
1000
0000
0000
0000
0000
0010
0000
0000
1000
0000
0000
0000
0100
0000
,
0000
0000
0000
1000
0000
0000
0000
0001
0000
0000
0000
1000
0000
0000
0000
0010
0000
0000
0000
0100
0000
0000
0000
0001
0000
0000
0000
0010
0000
0000
0000
0000
,
0100
0000
0000
0000
0001
0000
0000
0000
0000
0010
0000
0000
0000
0100
0000
0000
0000
1000
0000
0000
0000
0000
0100
0000
0000
0100
0000
0000
0000
0000
0000
0010
,
0000
0000
0000
0000
0100
0000
0000
0100
0000
0000
0000
0001
0000
0000
0000
0010
0000
0000
0000
0100
0000
0000
0000
0010
0000
0000
0000
0000
0100
0000
0000
0010
,
0000
0000
0000
1000
0000
0000
0000
0001
0000
0000
0000
0100
0000
0000
0000
0000
0010
0000
0000
0000
1000
0000
0000
0000
0100
0000
0000
0000
0100
0000
0000
0000
,
0000
0001
0000
0000
0000
0010
0000
0000
0000
0000
0010
0000
0000
0100
0000
0000
0000
0000
0010
0000
0000
1000
0000
0001
0000
0000
0100
0000
0000
0000
0000
1001
,
0000
0000
0100
0000
0000
0000
0010
0000
0000
0000
0100
0000
0000
0000
0010
0000
0000
0000
0001
0000
0000
0000
0000
0100
0000
0000
0000
0001
0000
0000
0000
0100
,
0000
0000
0000
0000
0010
0000
0000
0000
0100
0000
0000
0000
0000
0010
0000
0000
0001
0000
0000
0000
0000
0010
0000
0000
0000
0000
0101
0000
0000
0000
0010
0000
,
0000
0100
0001
0000
0000
0000
0010
0000
0000
0000
1000
0000
0000
0000
0010
0000
0000
0100
0000
0000
0000
0001
0000
0000
0000
0010
0000
0000
0000
0000
1000
0000
,
0000
0100
0000
0000
0000
0000
0000
0010
0000
0000
0000
0100
0000
0000
0000
0001
0000
0000
0000
0000
0100
0000
0000
0000
0000
0010
0000
0000
0100
0000
0000
0000
,
0010
0000
0000
0000
0000
0001
0000
0000
0000
0010
0000
0000
0000
0100
0000
0000
0000
1000
0000
0000
0100
0000
0000
0000
0000
0010
0000
0000
1000
0001
0000
0000
,
0000
0100
0000
0000
0000
0010
0000
0000
0100
0000
0000
0000
0000
1000
0010
0000
0100
0000
0000
0000
0000
1000
0010
0000
0000
0100
0000
0000
0000
0100
0000
0000
,
0000
0001
0000
0000
0000
0010
0000
0000
0000
0001
0000
0000
0000
0100
0000
0000
0000
0000
0010
0000
0000
0000
0000
0100
0000
0000
0000
0010
0000
0000
0000
1000
,
0000
0000
0000
0010
0000
0000
0000
0100
0000
0000
0000
0001
0000
0000
0000
0010
0000
0000
0000
0100
0000
0000
0000
0000
0010
0000
0000
0000
0100
0000
0000
0000
,
0001
0000
0000
0000
0100
0000
0000
0000
0010
0000
0000
0000
0000
0000
0000
0000
0000
1000
0000
0000
0100
0000
0000
0000
0000
0010
0000
0000
0001
0000
0000
0000
,
0000
0010
0000
0000
0000
0100
0000
0000
0000
0000
0010
0000
0000
0100
0000
0000
0000
0000
0001
0000
0000
0000
0100
0000
0000
0000
1000
0000
0000
0000
0100
0000
,
0000
0000
0010
0000
0000
0000
0100
0000
0000
0000
0000
0010
0000
0000
0000
0000
0000
0001
0000
0000
0000
0000
0010
0000
0000
0000
0100
0000
0000
1000
0000
0000
,
0000
0100
0000
0000
0000
0010
0000
0000
0000
0100
0000
0000
0000
0010
0000
0000
0000
0000
1000
0000
0000
0000
0001
0000
0000
0000
0100
0000
0000
0000
0010
0000
,
0000
0000
0100
0000
0000
0000
0000
1000
0000
0000
0000
0100
0000
0000
0000
0010
0000
0000
0000
0100
0000
0000
0000
0010
0000
0000
0000
0001
0000
0000
0000
0000
,
0010
0000
0000
0000
0000
0100
0000
0000
1000
0000
0000
0000
0100
0000
0000
0000
0010
0000
0000
0000
0100
0000
0000
0000
0000
0001
0000
0000
0000
0000
0010
0000
,
0000
0000
0100
0000
0000
0000
1000
0000
0000
0000
0100
0000
0000
0000
0010
0000
0000
0000
0100
0000
0000
0000
0010
0000
0000
0000
0100
0000
0000
0000
0000
0001
,
0000
0000
0000
0010
0000
0000
0000
0100
0000
0000
0000
1000
0000
0000
0000
0001
0000
0000
0000
0100
0000
0000
0000
0000
0010
0000
0000
0000
0100
0000
0000
0000
,
0000
0000
0000
0000
0000
0000
0000
0001
0000
0000
1000
0000
0000
0010
0000
0000
0000
0000
0100
0000
0000
0000
0010
0000
0000
1000
0000
0000
0000
0000
0001
0000
,
0000
0000
0100
0000
0000
0000
0001
0000
0000
0000
0010
0000
0000
0000
0010
0000
0000
0000
0000
0100
0000
0000
0001
0000
0000
0000
1000
0000
0000
0000
0010
0000
,
0000
0000
0100
0000
0000
0000
0001
0000
0000
0000
1000
0000
0000
0000
0010
0000
0000
0000
0000
0100
0000
0000
0000
0010
0000
0000
0000
0000
0100
0000
0000
0000
,
0000
0001
0000
0000
0000
0010
0000
0000
0000
0000
0100
0000
0000
0000
0000
0000
0000
1000
0000
0000
0000
0000
0100
0000
0000
0000
0010
0000
0000
0100
0000
0000
,
0000
0010
0000
0000
0000
0001
0000
0000
0000
0010
0000
0000
0000
0100
0000
0000
0001
0000
0000
0000
0000
0000
0000
0000
0000
0000
1000
0000
0000
0000
0010
0000
,
0000
0000
0000
1000
0000
0000
0000
0000
0010
0000
0000
0000
0000
0100
0000
0001
0000
0000
0000
0000
1000
0000
0000
0000
0100
0000
0000
0000
0010
0000
0000
0000
,
0100
0000
0000
0000
1000
0001
0000
0000
0100
0000
0000
0010
0000
0000
0000
0100
0000
1000
0000
0000
0000
0010
0000
0000
0000
0100
0000
0000
0000
0000
1000
0000
,
0000
0000
0010
0000
0000
0000
0001
0000
0000
0000
0000
0010
0000
0000
0000
0100
0000
0000
0000
0010
0000
0000
0000
1000
0000
0000
0100
0000
0000
0000
0000
0010
,
0000
0000
0100
0000
0000
0000
0000
0000
1000
0001
0000
0000
0100
0000
0000
0000
0010
0000
0000
0000
0001
0000
0000
0000
1000
0000
0000
0000
0100
0000
0000
0000
,
0000
1000
0010
0000
0000
0100
0000
0000
0000
1000
0001
0000
0100
0000
0000
0000
0000
0010
0000
0000
0000
1000
0000
0000
0000
0010
0000
0000
0000
0100
0000
0000
,
0000
0010
0000
0000
0000
0100
0000
0000
0000
0000
1000
0001
0000
0000
0100
0000
0000
0000
0010
0000
0000
0000
0000
0001
1000
0000
0000
0000
0100
0000
0000
0000
,
0010
0000
0000
0000
1000
0000
0000
0100
0000
0000
0010
0000
0000
1000
0000
0001
0000
0000
0000
0000
0100
0000
0000
0000
0000
0000
0000
0000
0000
0000
0000
0000
;

//---------------dance-single - ----------------
#NOTES:
     dance-single:
     :
     Beginner:
     1:
     0.218,0.337,0.089,0.039,0.000,253.000,16.000,7.000,0.000,0.000:
0000
2000
0000
0000
,
0000
0000
0000
0000
,
0000
3020
0000
0000
,
0000
0000
0000
0000
,
0000
0030
0002
0000
,
0000
0000
0000
0000
,
0000
0000
0000
0000
,
0000
0000
0000
0000
,
0000
0000
0203
0000
,
0000
0000
0000
0000
,
0000
0000
0300
0020
,
0000
0000
0000
0000
,
0000
0000
0000
2030
,
0000
0000
0000
0000
,
0000
0000
0000
0000
,
0000
0000
0000
0000
,
0000
0000
3000
0000
,
0010
0000
0000
0000
,
0000
0000
0000
0000
,
1000
0000
0000
0000
,
0000
0000
0000
0000
,
0000
0001
0000
0000
,
0000
0000
0000
0000
,
0000
0010
0000
0000
,
0000
1000
0000
0010
,
0000
1000
0001
0000
,
0000
0000
0000
0000
,
0000
0000
1010
0000
,
0000
0000
0000
0000
,
0000
0000
0001
0000
,
0000
0000
0100
0000
,
0000
0000
1000
0000
,
0000
0000
0000
0000
,
0000
0000
0000
0000
,
0000
0010
0000
1000
,
0000
0001
0000
0000
,
0000
0010
0000
1000
,
0000
0001
0000
0000
,
0000
0000
0010
0000
,
0100
0000
0001
0000
,
0000
0000
0010
0000
,
1000
0000
0001
0000
,
0100
0000
0010
0000
,
1000
0000
0000
0001
,
0000
0000
0000
0100
,
0000
1001
0000
0100
,
0000
0000
0000
0010
,
0000
1001
0000
0010
,
0000
0000
0000
1000
,
0000
0000
0001
0000
,
0010
0000
0100
0000
,
1000
0000
0001
0000
,
0100
0000
0000
0000
,
0000
0000
0020
0000
,
0000
1030
0100
0000
,
0000
0001
0100
0000
,
0000
1000
0010
0000
,
0000
0000
0000
0000
,
0000
0000
0000
0010
,
0000
1000
0001
0000
,
0000
0000
0000
0000
,
0010
0000
1000
0100
,
0000
0000
0001
1000
,
0000
0000
0000
0010
,
0100
0000
0001
0000
,
1000
0000
0010
0000
,
0100
0000
0001
0000
,
0000
0010
0000
1000
,
0100
0000
0000
0000
,
0000
0010
0000
0001
,
0100
0000
0010
0001
,
1000
0010
0000
0000
,
0000
0000
1000
0000
,
0000
0000
0001
0000
,
0000
0000
0010
0000
,
0100
0000
1000
0000
,
0001
0000
0010
0000
,
0100
0000
1000
0000
,
0001
0000
0000
0010
,
0000
0100
0000
0001
,
0000
1000
0000
0001
,
0000
0100
0000
0010
,
0000
1000
0000
0001
,
0000
0010
0000
0100
,
0000
0000
0001
0000
,
0010
0000
0100
0000
,
0001
0000
0100
0000
,
0010
0000
1000
0000
,
0001
0000
0100
0000
,
0001
0000
0000
1001
,
0000
0010
0000
0010
,
0000
1000
0000
0010
,
0000
1000
0000
0110
,
0000
1000
0000
0001
,
0000
0010
0000
0000
,
1001
0100
0000
0000
,
0110
0000
1000
0000
,
1010
0000
0100
0000
,
0101
0000
0010
0000
,
0100
0000
1000
0000
,
0110
0000
1000
0000
,
0000
1001
0000
0100
,
0000
1010
0000
0100
,
0000
0101
0000
0100
,
0000
0110
0000
1000
,
0000
1010
0000
0100
,
0000
0100
0001
0000
,
0100
0000
0010
1000
,
0001
0001
0100
0010
,
1000
0000
0010
0100
,
0001
0010
0100
0010
,
1000
0000
0010
0000
,
0001
0001
0100
0000
,
0010
1000
0000
0010
,
0000
0100
0100
0001
,
1000
0010
0000
0100
,
0000
0001
0001
0100
,
0010
1000
0000
0100
,
0000
0000
0010
0010
,
1000
0010
0100
0000
,
1000
0000
0001
0000
,
0100
0000
0010
0000
,
1000
0000
0001
0100
,
0010
1000
0100
0000
,
0000
0010
0000
0001
,
1000
0010
0100
1000
,
0000
0001
0000
0010
,
0010
1000
0010
0100
,
0000
0001
1000
0000
,
0000
0000
1000
0001
,
0000
0000
0010
0100
,
0000
0010
0001
1000
,
0000
0000
0000
0010
,
1000
0000
0100
0000
,
0001
0000
0010
0000
,
0100
0000
1000
0010
,
0000
0001
0000
0010
,
0100
0000
0000
0000
,
1000
0001
0000
0010
,
0100
0000
0000
0000
,
0001
0010
0000
0000
,
0000
1000
0100
0000
,
0000
0010
0001
0000
,
0000
0000
0010
0000
,
1000
0000
0010
0000
,
0100
0000
0001
0000
,
1000
0000
0010
0000
,
0100
0000
0000
0001
,
0000
1000
0000
0010
,
0000
0100
0000
0001
,
0000
1000
0000
0010
,
0000
0100
0000
1001
,
0000
0100
0000
0000
;
